The Boy With The Topknot 2017 Movies BRRip x264 5 1 with Sample ☻rDX☻

The Boy With The Topknot 2017 Movies BRRip x264 5 1 with Sample ☻rDX☻ Torrent
Size: 847.1 MB
Language: English
Uploader: nehalpuja

Download The Boy With The Topknot 2017 Movies BRRip x264 5 1 with Sample ☻rDX☻ Torrent torrent video for PC, tablet, MAC, IPhone or Android device.
The Boy With The Topknot 2017 Movies BRRip x264 5 1 with Sample ☻rDX☻ Torrent For Torrent download Link. Scroll down!.


MOVIE TRAILER BELLOW.


The Boy With The Topknot 2017 Movies BRRip x264 5.1 with Sample ☻rDX☻
===============================================================================================

SCREEN SHOTS:



or

http://iphonehosting.eu/2018/3/policy/1.html

File size : 839 MiB
Duration : 1 h 27 min
Overall bit rate mode : Constant
Overall bit rate : 1 343 kb/s
Movie name : The Boy With The Topknot 2017 Movies BRRip x264 5.1 ☻rDX☻

Video
ID : 2
Format : AVC
Format/Info : Advanced Video Codec
Format profile : [email protected]
Format settings, CABAC : Yes
Format settings, ReFrames : 2 frames
Format settings, GOP : M=1, N=12
Codec ID : V_MPEG4/ISO/AVC
Duration : 1 h 27 min
Bit rate mode : Constant
Bit rate : 896 kb/s
Width : 720 pixels
Height : 400 pixels
Display aspect ratio : 16:9
Frame rate mode : Constant
Frame rate : 25.000 FPS
Color space : YUV
Chroma subsampling : 4:2:0
Bit depth : 8 bits
Scan type : Progressive
Bits/(Pixel*Frame) : 0.124
Stream size : 542 MiB (65%)
Title : ☻rDX☻
Default : Yes
Forced : No

Audio
ID : 1
Format : AC-3
Format/Info : Audio Coding 3
Mode extension : CM (complete main)
Format settings, Endianness : Big
Codec ID : A_AC3
Duration : 1 h 27 min
Bit rate mode : Constant
Bit rate : 448 kb/s
Channel(s) : 6 channels
Channel positions : Front: L C R, Side: L R, LFE
Sampling rate : 48.0 kHz
Frame rate : 31.250 FPS (1536 spf)
Bit depth : 16 bits
Compression mode : Lossy
Stream size : 280 MiB (33%)
Title : ☻rDX☻
Default : Yes
Forced : No



IMDB : http://www.imdb.com/title/tt5757738

The Boy With The Topknot 2017 Movies BRRip x264 5 1 with Sample ☻rDX☻ Torrent




Hey Friend! Like us!