David Attenborough's Natural Curiosities S04E04 Curious Counters (720p HD, soft Eng subs

David Attenborough's Natural Curiosities S04E04 Curious Counters (720p HD, soft Eng subs Torrent
Size: 554.8 MB
Language: English
Uploader: ElsonRoa

Download David Attenborough's Natural Curiosities S04E04 Curious Counters (720p HD, soft Eng subs Torrent torrent video for PC, tablet, MAC, IPhone or Android device.
David Attenborough's Natural Curiosities S04E04 Curious Counters (720p HD, soft Eng subs Torrent For Torrent download Link. Scroll down!.


MOVIE TRAILER BELLOW.


David Attenborough's Natural Curiosities S04E04 Curious Counters (720p HD, soft Eng subs)

Can animals count? This is a question that has intrigued and fooled investigators for a long time. Just over 100 years ago, a German horse called Hans was declared a mathematical genius but all was not as it seemed. And strangely, some bamboos around the world flower exactly at the same no matter where they are. Are they counting down the years?

First broadcast: 17 March 2018
Duration: 30 minutes



Media info:
General
Format : MPEG-4
Format profile : Base Media
Codec ID : isom (isom/iso2/avc1/mp41)
File size : 554 MiB
Duration : 28mn 54s
Overall bit rate mode : Variable
Overall bit rate : 2 677 Kbps
Writing application : Lavf57.71.100

Video
ID : 2
Format : AVC
Format/Info : Advanced Video Codec
Format profile : [email protected]
Format settings, CABAC : Yes
Format settings, ReFrames : 2 frames
Codec ID : avc1
Codec ID/Info : Advanced Video Coding
Duration : 28mn 54s
Bit rate mode : Variable
Bit rate : 2 354 Kbps
Maximum bit rate : 3 500 Kbps
Width : 1 280 pixels
Height : 720 pixels
Display aspect ratio : 16:9
Frame rate mode : Constant
Frame rate : 25.000 fps
Color space : YUV
Chroma subsampling : 4:2:0
Bit depth : 8 bits
Scan type : Progressive
Bits/(Pixel*Frame) : 0.102
Stream size : 487 MiB (88%)

Audio
ID : 1
Format : AAC
Format/Info : Advanced Audio Codec
Format profile : LC
Codec ID : 40
Duration : 28mn 54s
Bit rate mode : Variable
Bit rate : 317 Kbps
Maximum bit rate : 323 Kbps
Channel(s) : 2 channels
Channel positions : Front: L R
Sampling rate : 48.0 KHz
Frame rate : 46.875 fps (1024 spf)
Compression mode : Lossy
Stream size : 65.6 MiB (12%)

David Attenborough's Natural Curiosities S04E04 Curious Counters (720p HD, soft Eng subs Torrent




Hey Friend! Like us!