Chloe - Tra seduzione e inganno (2009) Julianne Moore 720p H264 italian english Ac3-5 1 sub ita MIRCrew

Chloe - Tra seduzione e inganno (2009) Julianne Moore 720p H264 italian english Ac3-5 1 sub ita MIRCrew Torrent
Size: 1.7 GB
Language: English
Uploader: robbyrs

Download Chloe - Tra seduzione e inganno (2009) Julianne Moore 720p H264 italian english Ac3-5 1 sub ita MIRCrew Torrent torrent video for PC, tablet, MAC, IPhone or Android device.
Chloe - Tra seduzione e inganno (2009) Julianne Moore 720p H264 italian english Ac3-5 1 sub ita MIRCrew Torrent For Torrent download Link. Scroll down!.


MOVIE TRAILER BELLOW.


Chloe - Tra seduzione e inganno (2009) Julianne Moore.720p.H264.italian.english.Ac3-5.1.sub.ita.MIRCrew


NO FOUND ONLY ORIGINAL RELEASE




My release is always in double track audio italian and Original audio
for select it use VLC or dvd player home
not use wmp

Chloe - Tra seduzione e inganno (2009)







Titolo originale Chloe
Lingua originale inglese
Paese di produzione USA, Canada, Francia
Anno 2009
Durata 96 min
Rapporto 1,85 : 1
Genere drammatico, thriller, erotico
Regia Atom Egoyan
Soggetto Philip Blasbland, Anne Fontaine, Jacques Fieschi
Sceneggiatura Erin Cressida Wilson
Produttore Ivan Reitman,



Julianne Moore: Catherine Stewart
Liam Neeson: David Stewart
Amanda Seyfried: Chloe Sweeney
Max Thieriot: Michael Stewart
R.H. Thomson: Frank
Nina Dobrev: Anna
Mishu Vellani: Julie
Laura de Carteret: Alicia
Meghan Heffern: Miranda



Catherine Stewart è una ginecologa di Toronto che vive con il marito David, professore di musica, e il figlio adolescente Michael. Nonostante i rapporti un po' difficili con il figlio la vita di Catherine sembra essere perfetta e felice....................



A doctor hires an escort to seduce her husband, whom she suspects of cheating, though unforeseen events put the marriage in danger. ........









[spoiler]
General
Unique ID : 24870947542125905885996680531638300131 (0x12B5F863118DECC66FCBCF3CF02D2DE3)
Complete name : Chloe - Tra seduzione e inganno (2009).720p.h264.ita.eng.sub.Nuita-MIRCrew\Chloe - Tra seduzione e inganno (2009).720p.h264.ita.eng.sub.ita-MIRCrew.mkv
Format : Matroska
Format version : Version 2
File size : 1.75 GiB
Duration : 1h 36mn
Overall bit rate : 2 590 Kbps
Movie name : MIRCrew
Encoded date : UTC 1970-01-01 00:00:02
Writing application : Lavf54.63.100
Writing library : Lavf54.63.100
COPYRIGHT : robbyrs-ilcorsaronero

Video
ID : 1
Format : AVC
Format/Info : Advanced Video Codec
Format profile : [email protected]
Format settings, CABAC : Yes
Format settings, ReFrames : 2 frames
Codec ID : V_MPEG4/ISO/AVC
Duration : 1h 36mn
Bit rate : 1 700 Kbps
Width : 1 280 pixels
Height : 688 pixels
Display aspect ratio : 1.853
Frame rate mode : Variable
Frame rate : 24.000 fps
Color space : YUV
Chroma subsampling : 4:2:0
Bit depth : 8 bits
Scan type : Progressive
Bits/(Pixel*Frame) : 0.080
Stream size : 1.11 GiB (63%)
Writing library : x264 core 130 r2273
Encoding settings : cabac=1 / ref=2 / deblock=1:0:0 / analyse=0x1:0x131 / me=hex / subme=7 / psy=1 / psy_rd=1.00:0.00 / mixed_ref=0 / me_range=16 / chroma_me=1 / trellis=1 / 8x8dct=0 / cqm=0 / deadzone=21,11 / fast_pskip=1 / chroma_qp_offset=-2 / threads=3 / lookahead_threads=1 / sliced_threads=0 / nr=0 / decimate=1 / interlaced=0 / bluray_compat=0 / constrained_intra=0 / bframes=3 / b_pyramid=0 / b_adapt=1 / b_bias=0 / direct=3 / weightb=1 / open_gop=0 / weightp=2 / keyint=240 / keyint_min=24 / scenecut=40 / intra_refresh=0 / rc_lookahead=40 / rc=abr / mbtree=1 / bitrate=1700 / ratetol=1.0 / qcomp=0.60 / qpmin=10 / qpmax=69 / qpstep=4 / vbv_maxrate=24000 / vbv_bufsize=24000 / nal_hrd=none / ip_ratio=1.40 / aq=1:1.00
Language : Italian
Default : Yes
Forced : No

Audio #1
ID : 2
Format : AC-3
Format/Info : Audio Coding 3
Mode extension : CM (complete main)
Codec ID : A_AC3
Duration : 1h 36mn
Bit rate mode : Constant
Bit rate : 448 Kbps
Channel(s) : 6 channels
Channel positions : Front: L C R, Side: L R, LFE
Sampling rate : 48.0 KHz
Bit depth : 16 bits
Compression mode : Lossy
Delay relative to video : 1mn 5s
Stream size : 309 MiB (17%)
Language : English
Default : No
Forced : No

Audio #2
ID : 3
Format : AC-3
Format/Info : Audio Coding 3
Mode extension : CM (complete main)
Codec ID : A_AC3
Duration : 1h 36mn
Bit rate mode : Constant
Bit rate : 448 Kbps
Channel(s) : 6 channels
Channel positions : Front: L C R, Side: L R, LFE
Sampling rate : 48.0 KHz
Bit depth : 16 bits
Compression mode : Lossy
Delay relative to video : 1mn 5s
Stream size : 309 MiB (17%)
Language : Italian
Default : Yes
Forced : No


[/spoiler]



Chloe - Tra seduzione e inganno (2009) Julianne Moore 720p H264 italian english Ac3-5 1 sub ita MIRCrew Torrent




Hey Friend! Like us!